Top news

Digicel, zalando Voila, irland 51210, vodafone, O2, pink indien 53000, bharti Airtel, Videocon, Reliance. panda First Name, email Your confirmation will be sent rabattcode to your email address.Adorable Panda Bear Cupcake rabattcode Toppers tele - Perfect pink for Baby plus Shower, 1st Birthday and..
Read more
Die entsprechenden Kontaktdaten findest du auf der rabattcode Pieper pieper Webseite. Mit diesen Düften riechst du wie ein Star.Solltest du noch nicht das rabattcode Richtige gefunden haben, stöbere doch einfach bootdepot mal rabattcode in einer hawkers der zahlreichen anderen Parfümerien nach einem Eau de..
Read more

Rituals rabattcode november 2017





Watch the lyrics video.
In India, rabattcode Guru Nanak Jayanti is celebrated with special fervor in rituals the regions of Punjab, Haryana, rituals and Chandigarh.
The band went on to receive world-wide acclaim for their 1998 release of 'Holocausto de la Morte the band's genre-defining rabattcode album featuring pantera november frontman Phil Anselmo.
Guru Nanak Jayanti celebrates the birth of the first Sikh Guru, Guru Nanak, who was the founder of Sikhism.Soccer/football or calcio as we call it is a de-facto religion in tuttocialde Italy with its own devotees (some of them fundamentalists like hooligans or ultra priests (soccer coaches and team presidents, like.Wav Pre-gap rabattcode length 0:00:01.00 Peak level.8 november Track quality 100.0 Test CRC 556B2466 Copy CRC 556B2466 Track not present in AccurateRip database Copy OK Track 5 Filename C:My Rip05 rabattcode - Awakening.Since the Sikh diaspora is scattered throughout the world, the festival is celebrated with great fervor not only in India and Nankana Sahib in Pakistan, but also in other countries with substantial Sikh population.While Guru Nanak was born on April 15, 1469, the date of Guru Nanak Gurpurab varies from year to year.Wav Pre-gap dezember length 0:00:01.00 Peak level.8 Track quality 100.0 Test CRC 6A3944FD Copy CRC 6A3944FD Track not present in AccurateRip database Copy OK None of the tracks are present in the AccurateRip database No errors occurred End of status report.The procession carries the Sikh flag, known as the Nishan Sahib and the Palki (Palanquin) of Guru Granth Sahib. Since Guru Nanak was the founder of Sikhism, the celebration of this particular Gurpurab is somewhat more elaborate.
WhiteWorm Cathedral, the US cult death metal rabattcode acts long-awaited new album, will hit the stores on October 24th (October 28th in North America just in time for Halloween.
Test CRC profis 7102BFB0, copy CRC 7102BFB0, track not present in AccurateRip rabattcode database.Today, there are big Gurdwaras in several countries across the world and rabattcode the festival is celebrated with great pomp and show within the premises of these religious places.Read offset correction : 30, spielzeug overread into Lead-In and Lead-Out :.Wav Pre-gap length 0:00:01.00 Peak technik level.8 Track rabattcode quality 100.0 Test CRC 597BC236 Copy CRC 597BC236 Track not present in AccurateRip database Copy OK Track 8 Filename C:My Rip08 - Macedonia.Wav Pre-gap length 0:00:01.00 Peak level.8 Track quality 100.0 Test CRC 7D90EE79 rabattcode Copy CRC 7D90EE79 Track not present in AccurateRip database Copy OK Track 10 Filename C:My Rip10 - Red Sun.Copy OK, track 2, filename C:My Rip02 - The Nubian Queens.Different hymns are sung at different Gurpurabs to honor the particular Guru in whose memory it is being celebrated.Formed in 1983, necrophagia were one of the very first death metal bands in the United States.Selected spielzeug bitrate : 32 kBit/s, quality : High, add ID3 rabattcode tag :.


[L_RANDNUM-10-999]
Sitemap